#TITLE:Sewer Surfin';
#SUBTITLE:TMNT Turtles In Time;
#ARTIST:Konami;
#TITLETRANSLIT:;
#SUBTITLETRANSLIT:;
#ARTISTTRANSLIT:;
#CREDIT:;
#BANNER:Sewer Surfin'.png;
#BACKGROUND:Sewer Surfin'-bg.png;
#LYRICSPATH:;
#CDTITLE:cdtitle.png;
#MUSIC:Sewer Surfin'.mp3;
#OFFSET:2.061;
#SAMPLESTART:38.640;
#SAMPLELENGTH:12.000;
#SELECTABLE:YES;
#BPMS:0.000=205.040;
#STOPS:;
#BGCHANGES:;
// cache tags:
#FIRSTBEAT:8.000;
#LASTBEAT:295.000;
#SONGFILENAME:Songs/Music V.I.P ^_^/Sewer Surfin' (Zaghurim)/Sewer Surfin'.sm;
#HASMUSIC:1;
#HASBANNER:1;
#MUSICLENGTH:98.716;
// end cache tags

//---------------dance-single - ----------------
#NOTES:
     dance-single:
     :
     Hard:
     12:
     1.000,1.000,1.000,0.041,0.137,550.000,280.000,4.000,0.000,0.000:
0000
0000
0000
0000
,
0000
0000
0000
0000
,
0110
0000
0002
0000
0000
0003
1000
0020
,
0000
0000
1000
0000
0000
0000
1000
0000
0000
0000
1030
0000
0001
0010
0100
0000
,
1001
0000
2010
0000
0000
3000
0001
0200
,
0000
0000
0000
0000
0000
0310
0010
0000
,
1010
0100
0011
0000
1010
0100
0011
0000
,
0010
1100
0011
0000
1010
0100
0011
0000
,
1010
0100
0011
0000
1010
0100
0011
1000
,
0001
1001
1001
1001
1001
0001
0011
0001
,
1001
0110
1000
0110
1001
0100
1010
0101
,
0000
0000
0010
0000
0010
0000
0010
0000
1000
0100
0010
0000
0010
0100
1000
0000
,
1010
1010
1010
0001
1100
1100
0001
1001
,
0000
0001
0010
0100
1000
0100
0010
0001
,
1001
0110
0001
0110
1001
0010
0101
1010
,
0000
0000
0100
0000
0100
0000
0100
0000
0001
0010
0100
0000
0100
0010
0001
0000
,
0101
0101
0101
1000
0011
0011
1000
1001
,
0001
0010
0100
0000
0001
0010
0100
0000
0100
0000
0110
0000
0000
0000
1001
0000
,
0001
1000
0011
0100
0001
1010
1010
1000
,
0010
0100
1001
0001
0001
1001
1001
0101
,
0001
1000
0011
0100
0001
1010
1010
1000
,
0010
0100
1001
0001
0001
1001
1001
0101
,
1001
0110
0010
0110
1001
0010
1100
0010
,
0101
1010
1000
1001
0110
0100
0011
0100
,
0010
0101
0101
0101
0010
0100
0011
0100
,
0010
0000
0100
0000
0001
0100
0010
1000
0011
0000
0000
0000
0110
0000
1001
0000
,
1000
0001
1100
0010
1000
0101
0101
0001
,
0100
0010
1001
1000
1000
1001
1001
1010
,
1000
0001
1100
0010
1000
0101
0101
0001
,
0100
0010
1001
1000
1000
1001
1001
1010
,
1001
0110
0010
0110
1001
1000
0110
1000
,
1010
0101
0001
0101
1010
1000
0011
0100
,
1000
1010
1010
1010
0010
0100
0011
0100
,
0010
1100
1010
0110
0101
0011
0101
1001
,
1000
1000
1001
0000
0000
1010
0101
0001
,
1001
0000
0110
1010
0010
0110
1010
1100
,
0000
1100
1010
1001
0011
0011
0101
0000
,
0011
0011
0101
0000
0101
1100
0110
0011
,
1000
1000
1001
0000
0000
1010
0101
0001
,
1001
0000
0110
1010
0010
0110
1010
1100
,
0010
0000
1100
0000
1010
0000
1001
0000
0001
0010
0100
0010
0100
1000
0100
0010
,
0001
0000
1001
0000
0000
0000
0110
0000
1001
0000
0010
0100
0011
0000
0000
0000
,
1001
0110
0001
0110
1001
0010
0101
1010
,
0000
0000
0100
0000
0100
0000
0100
0000
0001
0010
0100
0000
0100
0010
0001
0000
,
0101
0101
0101
1000
0011
0011
1000
1001
,
0000
1000
0100
0010
0001
0010
0100
1000
,
1001
0110
1000
0110
1001
0100
1010
0101
,
0000
0000
0010
0000
0010
0000
0010
0000
1000
0100
0010
0000
0010
0100
1000
0000
,
1010
1010
1010
0001
1100
1100
0001
1001
,
1000
0100
0010
0000
1000
0100
0010
0000
0010
0000
0110
0000
0000
0000
1001
0000
,
1000
0001
1100
0010
1000
0101
0101
0001
,
0100
0010
1001
1000
1000
1001
1001
1010
,
1000
0001
1100
0010
1000
0101
0101
0001
,
0100
0010
1001
1000
1000
1001
1001
1010
,
1001
0110
0100
0110
1001
1000
0110
1000
,
1010
0101
0001
0101
1010
1000
0011
0100
,
1000
1010
1010
1010
0100
0010
1100
0010
,
0100
0000
0010
0000
1000
0010
0100
0001
1100
0000
0000
0000
0110
0000
1001
0000
,
0001
1000
0011
0100
0001
1010
1010
1000
,
0010
0100
1001
0001
0001
1001
1001
0101
,
0001
1000
0011
0100
0001
1010
1010
1000
,
0010
0100
1001
0001
0001
1001
1001
0101
,
1001
0110
0010
0110
1001
0001
0110
0001
,
0101
1010
1000
1010
0101
0001
1100
0010
,
0001
0101
0101
0101
0100
0010
1100
0010
,
0100
0011
0101
0110
1010
1100
1010
1001
,
0001
0001
1001
0000
0000
0101
1010
1000
,
1001
0000
0110
0101
0100
0110
0101
0011
,
0000
0011
0101
1001
1100
1100
1010
0000
,
1100
1100
1010
0000
1010
0011
0110
1100
,
0001
0001
1001
0000
0000
0101
1010
1000
,
1001
0010
0110
0101
0100
0110
0101
0011
,
0100
0000
0011
0000
0101
0000
1001
0000
1000
0100
0010
0100
0010
0001
0010
0100
,
1000
0000
1001
0000
0000
0000
0110
0000
1001
0000
0100
0010
1001
0000
0000
0000
;
